<?xml version="1.0" standalone="no"?>
<!DOCTYPE svg PUBLIC "-//W3C//DTD SVG 1.1//EN" "http://www.w3.org/Graphics/SVG/1.1/DTD/svg11.dtd" >
<svg xmlns="http://www.w3.org/2000/svg">
<defs>
  <font id="opal-icon" horiz-adv-x="1345.09375">
    <font-face font-family="opal-icon"
      units-per-em="1001" ascent="1001"
      descent="0" />
    <missing-glyph horiz-adv-x="0" />
    <glyph glyph-name="arrow-circle-down"
      unicode="&#xE001;"
      horiz-adv-x="1001" d="M500.5 985.359375C232.654296875 985.359375 15.640625 768.345703125 15.640625 500.5S232.654296875 15.640625 500.5 15.640625S985.359375 232.654296875 985.359375 500.5S768.345703125 985.359375 500.5 985.359375zM922.796875 500.5C922.796875 268.4322265625 734.9138671874999 78.203125 500.5 78.203125C268.4322265625001 78.203125 78.203125 266.0861328125001 78.203125 500.5C78.203125 732.5677734374999 266.0861328125 922.796875 500.5 922.796875C732.5677734375 922.796875 922.796875 734.9138671875 922.796875 500.5zM741.9521484375 509.2978515625L728.4621093750001 522.787890625C719.2732421875 531.9767578125 704.0236328125001 531.9767578125 695.0302734375 522.396875L533.736328125 355.2376953125V727.2890625C533.736328125 740.192578125 523.1789062500001 750.75 510.275390625 750.75H490.724609375C477.82109375 750.75 467.263671875 740.192578125 467.263671875 727.2890625V355.2376953125L305.9697265625 522.5923828125C296.7808593750001 531.9767578125 281.7267578125 532.1722656249999 272.537890625 522.9833984375L259.0478515625 509.493359375C249.858984375 500.3044921874999 249.858984375 485.4458984374999 259.0478515625 476.25703125L483.8818359375 251.2275390625C493.070703125 242.038671875 507.929296875 242.038671875 517.1181640625 251.2275390625L741.9521484375 476.2570312500001C751.141015625 485.2503906250001 751.141015625 500.108984375 741.9521484375 509.2978515625001z" />
    <glyph glyph-name="arrow-circle-up"
      unicode="&#xE002;"
      horiz-adv-x="1001" d="M500.5 15.640625C768.345703125 15.640625 985.359375 232.654296875 985.359375 500.5S768.345703125 985.359375 500.5 985.359375S15.640625 768.345703125 15.640625 500.5S232.654296875 15.640625 500.5 15.640625zM78.203125 500.5C78.203125 732.5677734374999 266.0861328125 922.796875 500.5 922.796875C732.5677734375 922.796875 922.796875 734.9138671875 922.796875 500.5C922.796875 268.4322265625 734.9138671874999 78.203125 500.5 78.203125C268.4322265625001 78.203125 78.203125 266.0861328125001 78.203125 500.5zM259.0478515625 524.9384765625L483.8818359375 749.96796875C493.070703125 759.1568359375 507.929296875 759.1568359375 517.1181640625 749.96796875L741.9521484375 524.9384765625C751.141015625 515.7496093750001 751.141015625 500.891015625 741.9521484375 491.7021484375L728.4621093750001 478.2121093750001C719.2732421875 469.0232421875 704.0236328125001 469.0232421875 695.0302734375 478.603125L533.736328125 645.7623046875001V273.7109375C533.736328125 260.807421875 523.1789062500001 250.25 510.275390625 250.25H490.724609375C477.82109375 250.25 467.263671875 260.807421875 467.263671875 273.7109375V645.7623046875001L305.9697265625 478.4076171875001C296.7808593750001 469.0232421875 281.7267578125 468.8277343750001 272.537890625 478.0166015625001L259.0478515625 491.506640625C249.858984375 500.8910156250001 249.858984375 515.7496093750001 259.0478515625 524.9384765625z" />
    <glyph glyph-name="arrow-left"
      unicode="&#xE003;"
      horiz-adv-x="875.875" d="M267.79878125 257.1318749999999L281.62509375 270.9581875C290.7905 280.12359375 290.7905 294.9821875 281.62509375 304.14759375L117.5549375 467.2793124999999H852.4453437499999C865.39578125 467.2793124999999 875.9062812499999 477.7898124999999 875.9062812499999 490.7402499999999V510.2910312499999C875.9062812499999 523.24146875 865.39578125 533.75196875 852.4453437499999 533.75196875H117.5549375L281.62509375 696.8836875C290.7905 706.0490937499999 290.7905 720.9076875000001 281.62509375 730.07309375L267.79878125 743.89940625C258.633375 753.0648125 243.77478125 753.0648125 234.609375 743.89940625L6.881875 517.11034375C-2.28353125 507.9449375 -2.28353125 493.08634375 6.881875 483.9209374999999L234.609375 257.1318749999999C243.77478125 247.96646875 258.633375 247.96646875 267.79878125 257.1318749999999z" />
    <glyph glyph-name="arrow-right"
      unicode="&#xE004;"
      horiz-adv-x="875.875" d="M608.07621875 743.868125L594.24990625 730.0418125C585.0845 720.87640625 585.0845 706.0178125 594.24990625 696.8524062500001L758.3200625000001 533.7206874999999H23.4296562500001C10.4792187500001 533.7206874999999 -0.0312812499999 523.2101875 -0.0312812499999 510.25975V490.7089687499999C-0.0312812499999 477.7585312499999 10.4792187500001 467.2480312499999 23.4296562500001 467.2480312499999H758.3200625000001L594.24990625 304.1163125C585.0845 294.95090625 585.0845 280.0923125 594.24990625 270.9269062499999L608.07621875 257.1005937499999C617.241625 247.9351875 632.1002187500001 247.9351875 641.265625 257.1005937499999L868.9931250000001 483.8896562499999C878.15853125 493.0550624999999 878.15853125 507.91365625 868.9931250000001 517.0790625L641.265625 743.868125C632.1002187500001 753.0335312499999 617.241625 753.0335312499999 608.07621875 743.868125z" />
    <glyph glyph-name="backpack"
      unicode="&#xE005;"
      horiz-adv-x="875.875" d="M625.625 875.875H594.34375V907.15625C594.34375 958.90716796875 552.2509179687501 1001 500.5 1001H375.375C323.62408203125 1001 281.53125 958.90716796875 281.53125 907.15625V875.875H250.25C112.04552734375 875.875 0 763.82947265625 0 625.625V125.125C0 56.0129882812499 56.01298828125 0 125.125 0H750.75C819.8620117187501 0 875.875 56.0129882812499 875.875 125.125V625.625C875.875 763.82947265625 763.82947265625 875.875 625.625 875.875zM344.09375 907.15625C344.09375 924.41958984375 358.15076171875 938.4375 375.375 938.4375H500.5C517.72423828125 938.4375 531.78125 924.41958984375 531.78125 907.15625V875.875H344.09375V907.15625zM656.90625 62.5625H218.96875V250.25H656.90625V62.5625zM656.90625 312.8125H218.96875V375.375C218.96875 409.9212304687501 246.98501953125 437.9375 281.53125 437.9375H594.34375C628.8899804687501 437.9375 656.90625 409.9212304687501 656.90625 375.375V312.8125zM813.3125 125.125C813.3125 90.637421875 785.237578125 62.5625 750.75 62.5625H719.46875V375.375C719.46875 444.3697070312501 663.3384570312501 500.5 594.34375 500.5H281.53125C212.53654296875 500.5 156.40625 444.3697070312501 156.40625 375.375V62.5625H125.125C90.637421875 62.5625 62.5625 90.637421875 62.5625 125.125V625.625C62.5625 729.1268359375 146.7481640625 813.3125 250.25 813.3125H625.625C729.1268359375 813.3125 813.3125 729.1268359375 813.3125 625.625V125.125zM609.984375 688.1875H265.890625C257.2491796875001 688.1875 250.25 681.1883203125 250.25 672.546875V641.265625C250.25 632.6241796875 257.2491796875001 625.625 265.890625 625.625H609.984375C618.6258203125001 625.625 625.625 632.6241796875 625.625 641.265625V672.546875C625.625 681.1883203125 618.6258203125001 688.1875 609.984375 688.1875z" />
    <glyph glyph-name="bed"
      unicode="&#xE006;"
      horiz-adv-x="1251.25" d="M281.53125 375.375C367.7697460937501 375.375 437.9375 445.5427539062501 437.9375 531.78125S367.7697460937501 688.1875 281.53125 688.1875S125.125 618.01974609375 125.125 531.78125S195.29275390625 375.375 281.53125 375.375zM281.53125 625.625C333.28216796875 625.625 375.375 583.53216796875 375.375 531.78125S333.28216796875 437.9375 281.53125 437.9375S187.6875 480.0303320312499 187.6875 531.78125S229.78033203125 625.625 281.53125 625.625zM1032.28125 688.1875H531.78125C514.4983593750001 688.1875 500.5 674.1891406249999 500.5 656.90625V312.8125H62.5625V860.234375C62.5625 868.8758203125 55.5633203125 875.875 46.921875 875.875H15.640625C6.9991796875 875.875 0 868.8758203125 0 860.234375V140.765625C0 132.1241796874999 6.9991796875 125.125 15.640625 125.125H46.921875C55.5633203125 125.125 62.5625 132.1241796874999 62.5625 140.765625V250.25H1188.6875V140.765625C1188.6875 132.1241796874999 1195.6866796875001 125.125 1204.328125 125.125H1235.609375C1244.2508203124999 125.125 1251.25 132.1241796874999 1251.25 140.765625V469.21875C1251.25 590.1598828125 1153.2223828125 688.1875 1032.28125 688.1875zM1188.6875 312.8125H563.0625V625.625H1032.28125C1118.51974609375 625.625 1188.6875 555.45724609375 1188.6875 469.21875V312.8125z" />
    <glyph glyph-name="bell-slash"
      unicode="&#xE007;"
      horiz-adv-x="1251.25" d="M625.625 62.5625C591.0201171875 62.5625 563.0625 90.7156249999999 563.0625 125.125H500.5C500.5 56.1107421875 556.6107421875 0 625.625 0S750.75 56.1107421875 750.75 125.125H688.1875C688.1875 90.7156249999999 660.2298828125 62.5625 625.625 62.5625zM625.625 875.875C764.04453125 875.875 875.875 769.3232421875 875.875 637.5509765625C875.875 513.9900390624999 894.2527343749999 438.9150390625 924.751953125 384.3683593750001L1062.9759765625001 275.4705078125001C1064.3445312500003 301.6685546875 1054.7646484375 327.4755859375001 1034.8228515625 346.4398437500002C980.0806640625 398.4449218750001 938.4375000000002 452.9916015625001 938.4375000000002 637.5509765625002C938.4375000000002 793.1751953125001 814.4855468750002 920.059765625 656.9062500000001 935.3093750000002V969.71875C656.9062500000001 986.9234375 642.8296875000001 1001 625.6250000000001 1001S594.3437500000001 986.9234375 594.3437500000001 969.71875V935.309375C508.5158203125002 927.098046875 429.7261718750002 884.086328125 376.3525390625001 816.2451171875L424.6429687500001 778.3166015625C470.00078125 837.164453125 542.9251953125 875.875 625.625 875.875zM1245.384765625 52.39609375L44.966796875 997.480859375C38.31953125 1002.955078125 28.3486328125 1001.9775390625 23.069921875 995.134765625L3.519140625 970.6962890625C-1.955078125 963.853515625 -0.78203125 954.078125 5.865234375 948.7994140625L1206.283203125 3.519140625C1212.93046875 -1.955078125 1222.9013671875 -0.7820312499999 1228.1800781250001 5.865234375L1247.7308593750001 30.3037109375C1253.205078125 37.146484375 1252.2275390625 46.921875 1245.384765625 52.39609375zM281.53125 250.25C253.7691406250001 250.25 239.8880859375 282.5087890625 259.4388671875 301.08203125C320.4373046875 359.1478515625 364.817578125 424.251953125 373.419921875 579.48515625L312.4214843750001 627.580078125C310.857421875 451.623046875 269.80078125 397.4673828125 216.231640625 346.43984375C188.860546875 320.4373046875 180.258203125 281.140234375 194.334765625 246.33984375C208.6068359375 210.757421875 242.820703125 187.6875 281.53125 187.6875H871.1828125000001L791.806640625 250.25z" />
    <glyph glyph-name="box-check"
      unicode="&#xE008;"
      horiz-adv-x="1251.25" d="M962.8759765625 740.192578125L897.1853515624999 936.8734375C884.4773437499999 975.19296875 848.6994140625001 1001 808.2292968749999 1001H192.770703125C152.3005859375 1001 116.52265625 975.19296875 103.8146484375 936.8734375L4.8876953125 640.092578125C1.7595703125 630.5126953125 0 620.541796875 0 610.375390625V93.84375C0 42.0341796875 42.0341796875 0 93.84375 0H875.875C1083.11328125 0 1251.25 168.13671875 1251.25 375.375C1251.25 552.7005859374999 1128.080078125 700.8955078125 962.8759765625 740.192578125zM531.78125 938.4375H808.2292968749999C821.7193359374999 938.4375 833.6453124999999 929.83515625 837.946484375 917.1271484375L893.6662109375 749.96796875C887.8009765625 750.1634765624999 881.9357421875 750.9455078125 875.8749999999999 750.9455078125C764.8265624999999 750.9455078125 665.3130859374999 702.4595703125 596.6898437499999 625.8205078125H531.78125V938.4375zM163.053515625 917.1271484375C167.3546875 929.83515625 179.2806640625 938.4375 192.770703125 938.4375H469.21875V625.625H65.8861328125L163.053515625 917.1271484375zM93.84375 62.5625C76.6390625 62.5625 62.5625 76.6390625 62.5625 93.84375V563.0625H551.1365234374999C519.0732421875 507.7337890625 500.4999999999999 443.802734375 500.4999999999999 375.375C500.4999999999999 244.77578125 567.363671875 129.8171874999999 668.63671875 62.5625H93.84375zM875.875 62.5625C703.437109375 62.5625 563.0625 202.937109375 563.0625 375.375S703.437109375 688.1875 875.875 688.1875S1188.6875 547.8128906249999 1188.6875 375.375S1048.3128906250001 62.5625 875.875 62.5625zM1002.173046875 496.0033203125C996.1123046875 502.0640625 986.3369140625 502.0640625 980.276171875 496.0033203125L843.6162109375 360.51640625L784.37734375 420.341796875C778.3166015625 426.4025390625001 768.5412109375 426.4025390625001 762.48046875 420.341796875L725.9205078125 383.97734375C719.859765625 377.9166015624999 719.859765625 368.1412109374999 725.9205078125 362.08046875L832.2767578125 254.7466796875C838.3375 248.6859375 848.112890625 248.6859375 854.1736328124999 254.7466796875L1038.3419921875 437.546484375C1044.4027343750001 443.6072265625001 1044.4027343750001 453.3826171875 1038.3419921875 459.443359375L1002.173046875 496.0033203125z" />
    <glyph glyph-name="calendar-check"
      unicode="&#xE009;"
      horiz-adv-x="875.875" d="M782.03125 875.875H688.1875V977.5390625C688.1875 990.4895 677.677 1001 664.7265625 1001H649.0859375C636.1355 1001 625.625 990.4895 625.625 977.5390625V875.875H250.25V977.5390625C250.25 990.4895 239.7395 1001 226.7890625 1001H211.1484375C198.198 1001 187.6875 990.4895 187.6875 977.5390625V875.875H93.84375C42.01071875 875.875 0 833.86428125 0 782.03125V93.84375C0 42.01071875 42.01071875 0 93.84375 0H782.03125C833.86428125 0 875.875 42.01071875 875.875 93.84375V782.03125C875.875 833.86428125 833.86428125 875.875 782.03125 875.875zM93.84375 813.3125H782.03125C799.26721875 813.3125 813.3125 799.26721875 813.3125 782.03125V688.1875H62.5625V782.03125C62.5625 799.26721875 76.60778125 813.3125 93.84375 813.3125zM782.03125 62.5625H93.84375C76.60778125 62.5625 62.5625 76.60778125 62.5625 93.84375V625.625H813.3125V93.84375C813.3125 76.60778125 799.26721875 62.5625 782.03125 62.5625zM652.0889375 443.6932500000001L388.5756875 182.27584375C379.379 173.173 364.5516875 173.2042812500001 355.4175625000001 182.3696875000001L223.7235 314.4391250000001C214.55809375 323.6358125000002 214.589375 338.49440625 223.7860625 347.6598125000002L240.4276875 364.2388750000001C249.624375 373.4042812500002 264.48296875 373.3730000000003 273.648375 364.1763125000002L372.27815625 265.2650000000002L602.5394375 493.6806875000002C611.736125 502.8148125000002 626.626 502.7522500000002 635.760125 493.5555625000002L652.3079062500001 476.8826562500002C661.4420312500001 467.6859687500001 661.37946875 452.7960937500002 652.1827812500001 443.6932500000002z" />
    <glyph glyph-name="campground"
      unicode="&#xE00A;"
      horiz-adv-x="1251.25" d="M1235.609375 62.5625H1188.6875L664.2182421875 787.52501953125L787.3881640625 957.7927734375C792.4713671875 964.77240234375 790.9073046875001 974.54779296875 783.9276757812501 979.63099609375L758.6485156250001 998.00873046875C751.6688867187501 1003.09193359375 741.8739453125 1001.547421875 736.7907421875 994.5482421875L625.625 840.8791015625L514.4592578125 994.5482421875A15.638669921874998 15.638669921874998 0 0 1 492.601484375 998.00873046875L467.3223242187499 979.63099609375C460.3426953125 974.54779296875 458.7786328124999 964.77240234375 463.8618359374999 957.7927734375L587.0317578125 787.52501953125L62.5625 62.5625H15.640625C6.9991796875 62.5625 0 55.5633203125001 0 46.921875V15.640625C0 6.9991796874999 6.9991796875 0 15.640625 0H1235.609375C1244.2508203124999 0 1251.25 6.9991796874999 1251.25 15.640625V46.921875C1251.25 55.5633203125001 1244.2508203124999 62.5625 1235.609375 62.5625zM434.39880859375 62.5625L625.625 330.2908984375L816.85119140625 62.5625H434.39880859375zM893.7639648437499 62.5625L651.0801171874999 402.2964257812499C638.60671875 419.7552734375 612.6432812499999 419.7552734375 600.1698828125 402.2964257812499L357.48603515625 62.5625H139.76853515625L625.625 734.1709375L1111.48146484375 62.5625H893.7639648437499z" />
    <glyph glyph-name="car"
      unicode="&#xE00B;"
      horiz-adv-x="1001" d="M236.19298828125 516.140625C185.43916015625 516.140625 148.60548828125 483.2953125 148.60548828125 438.03525390625C148.60548828125 392.7751953125001 185.43916015625 359.9298828125001 236.19298828125 359.9298828125001L256.01748046875 359.734375C332.67609375 359.734375 344.11330078125 399.0314453125001 344.11330078125 422.4532812499999C344.09375 470.704609375 283.31037109375 516.140625 236.19298828125 516.140625zM256.01748046875 406.65625C249.15515625 406.65625 242.29283203125 406.8517578125001 236.19298828125 406.8517578125001C211.79361328125 406.8517578125001 195.52736328125 419.3251562500001 195.52736328125 438.03525390625S211.79361328125 469.21875 236.19298828125 469.21875S297.19142578125 441.1438281250001 297.19142578125 422.43373046875C297.19142578125 408.4158203125 276.58490234375 406.65625 256.01748046875 406.65625zM764.80701171875 516.140625C717.6896289062499 516.140625 656.90625 470.704609375 656.90625 422.43373046875C656.90625 399.01189453125 668.3434570312501 359.71482421875 745.0020703125 359.71482421875L764.8265625 359.9103320312501C815.580390625 359.9103320312501 852.4140625 392.7556445312502 852.4140625 438.0157031250001C852.39451171875 483.2953125000001 815.5608398437499 516.140625 764.80701171875 516.140625zM764.80701171875 406.8517578125001C758.70716796875 406.8517578125001 751.84484375 406.65625 744.98251953125 406.65625C724.395546875 406.65625 703.80857421875 408.4158203125 703.80857421875 422.43373046875C703.80857421875 441.1438281250001 740.40763671875 469.21875 764.80701171875 469.21875S805.47263671875 456.7453515625 805.47263671875 438.03525390625S789.2063867187501 406.8517578125001 764.80701171875 406.8517578125001zM989.24998046875 682.4004687500001C974.89970703125 705.6267968750001 950.03111328125 719.48830078125 922.718671875 719.48830078125H825.6294921875L809.8520117187501 767.89603515625C788.8740234375 832.2963085937499 728.853125 875.875 661.1487695312501 875.875H339.8512304687501C272.12732421875 875.875 212.1259765625 832.29630859375 191.14798828125 767.9155859375L175.3705078125 719.5078515625H78.281328125C50.96888671875 719.5078515625 26.10029296875 705.64634765625 11.75001953125 682.4200195312501S-3.89060546875 630.76685546875 8.3286328125 606.3479296875L19.628984375 583.64947265625C27.37109375 568.24345703125 39.023359375 556.1024218750001 52.8653125 547.3827734375C39.35572265625 524.43015625 31.30080078125 497.8801953125001 31.30080078125 469.23830078125V218.96875C31.30080078125 167.21783203125 73.3936328125 125.125 125.14455078125 125.125H156.42580078125C208.17671875 125.125 250.26955078125 167.21783203125 250.26955078125 218.96875V250.25H750.75V218.96875C750.75 167.21783203125 792.8428320312499 125.125 844.59375 125.125H875.875C927.62591796875 125.125 969.71875 167.21783203125 969.71875 218.96875V469.23830078125C969.71875 497.89974609375 961.663828125 524.43015625 948.15423828125 547.40232421875C962.0157421875 556.1219726562499 973.6484570312502 568.28255859375 981.39056640625 583.7081249999999L992.69091796875 606.308828125C1004.89060546875 630.7473046875 1003.60025390625 659.19369140625 989.24998046875 682.4004687499998zM250.641015625 748.5212109375C263.2708203125 787.270859375 299.126953125 813.3125 339.87078125 813.3125H661.1487695312501C701.89259765625 813.3125 737.7487304687501 787.270859375 750.37853515625 748.54076171875L790.3989843749999 625.6641015625H210.62056640625L250.641015625 748.5212109375zM75.60287109375 611.626640625L64.30251953125 634.2859960937501C60.763828125 641.3047265625 63.63779296875 647.2677148437501 64.96724609375 649.4965039062502C66.6681640625 652.27271484375 70.71517578125 656.92580078125 78.281328125 656.92580078125H154.99859375L142.38833984375 618.1761523437501A157.75525390625 157.75525390625 0 0 1 97.4019921875 596.1033203125C88.19357421875 598.0583984375 79.92359375 602.9851953125001 75.60287109375 611.6266406250002zM187.70705078125 218.96875C187.70705078125 201.7054101562501 173.6500390625 187.6875 156.42580078125 187.6875H125.14455078125C107.9203125 187.6875 93.86330078125 201.7054101562501 93.86330078125 218.96875V250.25H187.70705078125V218.96875zM907.13669921875 218.96875C907.13669921875 201.7054101562501 893.0796875 187.6875 875.85544921875 187.6875H844.57419921875C827.3499609375 187.6875 813.29294921875 201.7054101562501 813.29294921875 218.96875V250.25H907.13669921875V218.96875zM907.13669921875 375.39455078125V312.83205078125H93.86330078125V469.23830078125C93.86330078125 520.98921875 135.9561328125 563.08205078125 187.70705078125 563.08205078125H813.29294921875C865.0438671875 563.08205078125 907.13669921875 520.98921875 907.13669921875 469.23830078125V375.39455078125zM936.69748046875 634.2664453125L925.39712890625 611.68529296875C921.0764062500002 603.0047460937499 912.8064257812503 598.0583984374999 903.5980078125002 596.1033203124999C890.0297656250001 605.683203125 874.8779101562501 613.2298046875 858.6116601562502 618.1761523437499L846.0014062500002 656.9258007812499H922.7186718750002C930.2848242187501 656.9258007812499 934.3318359375002 652.27271484375 936.0327539062502 649.4965039062499C937.3817578125002 647.2677148437499 940.2557226562502 641.3242773437498 936.69748046875 634.2664453124999z" />
    <glyph glyph-name="check-circle"
      unicode="&#xE00C;"
      horiz-adv-x="1001" d="M500.5 985.359375C232.718814453125 985.359375 15.640625 768.281185546875 15.640625 500.5S232.718814453125 15.640625 500.5 15.640625S985.359375 232.718814453125 985.359375 500.5S768.281185546875 985.359375 500.5 985.359375zM500.5 78.203125C268.502609375 78.203125 78.203125 265.998154296875 78.203125 500.5C78.203125 732.495435546875 265.998154296875 922.796875 500.5 922.796875C732.497390625 922.796875 922.796875 735.001845703125 922.796875 500.5C922.796875 268.504564453125 735.001845703125 78.203125 500.5 78.203125zM777.39771484375 615.773361328125L424.54521484375 265.7518144531249C415.346572265625 256.62746484375 400.491888671875 256.6861171874999 391.3675390625 265.884759765625L223.46933984375 435.1397832031249C214.344990234375 444.3384257812499 214.403642578125 459.1931093749999 223.60228515625 468.317458984375L240.25955078125 484.83982421875C249.458193359375 493.964173828125 264.312876953125 493.905521484375 273.4372265625001 484.70687890625L408.2906953125 348.7644316406251L727.8306191406251 665.741248046875C737.02926171875 674.86559765625 751.8839453125 674.8069453125 761.0082949218752 665.608302734375L777.5306601562502 648.951037109375C786.6569648437502 639.7523945312499 786.5963574218752 624.8977109375 777.3977148437502 615.773361328125z" />
    <glyph glyph-name="chevron-left"
      unicode="&#xE00D;"
      horiz-adv-x="500.5" d="M466.24703125 71.28996875L480.07334375 85.11628125C489.23875 94.2816875 489.23875 109.14028125 480.07334375 118.3056875L97.87903125 500.5L480.07334375 882.6943125C489.23875 891.85971875 489.23875 906.7183125 480.07334375 915.88371875L466.24703125 929.71003125C457.081625 938.8754375 442.22303125 938.8754375 433.057625 929.71003125L20.42665625 517.0790625C11.26125 507.91365625 11.26125 493.0550625 20.42665625 483.88965625L433.057625 71.2586875C442.22303125 62.09328125 457.081625 62.09328125 466.24703125 71.2586875z" />
    <glyph glyph-name="chevron-right"
      unicode="&#xE00E;"
      horiz-adv-x="500.5" d="M34.25296875 929.71003125L20.42665625 915.88371875C11.26125 906.7183125 11.26125 891.85971875 20.42665625 882.6943125L402.6209687500001 500.5L20.42665625 118.3056875C11.26125 109.14028125 11.26125 94.2816875 20.42665625 85.11628125L34.25296875 71.28996875C43.418375 62.1245625 58.27696875 62.1245625 67.442375 71.28996875L480.07334375 483.9209374999999C489.23875 493.08634375 489.23875 507.9449375 480.07334375 517.11034375L67.442375 929.7413125C58.27696875 938.90671875 43.418375 938.90671875 34.25296875 929.7413125z" />
    <glyph glyph-name="clock"
      unicode="&#xE00F;"
      horiz-adv-x="1001" d="M500.5 985.359375C232.654296875 985.359375 15.640625 768.345703125 15.640625 500.5S232.654296875 15.640625 500.5 15.640625S985.359375 232.654296875 985.359375 500.5S768.345703125 985.359375 500.5 985.359375zM922.796875 500.5C922.796875 268.4322265625 734.9138671874999 78.203125 500.5 78.203125C268.4322265625001 78.203125 78.203125 266.0861328125001 78.203125 500.5C78.203125 732.5677734374999 266.0861328125 922.796875 500.5 922.796875C732.5677734375 922.796875 922.796875 734.9138671875 922.796875 500.5zM631.6857421875001 327.8666015625L472.9333984375 443.2162109375C466.8726562500001 447.712890625 463.3535156250001 454.751171875 463.3535156250001 462.1804687499999V774.2109375C463.3535156250001 787.114453125 473.9109375 797.671875 486.8144531250001 797.671875H514.185546875C527.0890625000001 797.671875 537.646484375 787.114453125 537.646484375 774.2109375V488.1830078125L675.4794921875 387.8875C686.0369140624999 380.2626953125 688.1875 365.599609375 680.5626953125001 355.0421875L664.5310546875 332.9498046874999C656.9062500000001 322.5878906249999 642.2431640625001 320.2417968749999 631.6857421875001 327.8666015624999z" />
    <glyph glyph-name="close"
      unicode="&#xE010;"
      horiz-adv-x="625.625" d="M379.1678515625 500.5L579.6806640625 701.0128125L621.0305664062499 742.36271484375C627.1304101562499 748.46255859375 627.1304101562499 758.3748046875 621.0305664062499 764.4746484375L576.7871484374999 808.71806640625C570.6873046874999 814.81791015625 560.7750585937499 814.81791015625 554.6752148437499 808.71806640625L312.8125 566.8553515625L70.94978515625 808.7376171875001C64.84994140625 814.8374609375 54.9376953125 814.8374609375 48.8378515625 808.7376171875001L4.5748828125 764.49419921875C-1.5249609375 758.3943554687501 -1.5249609375 748.4821093749999 4.5748828125 742.382265625L246.4571484375 500.5L4.5748828125 258.6372851562501C-1.5249609375 252.5374414062501 -1.5249609375 242.6251953125001 4.5748828125 236.5253515625001L48.81830078125 192.2819335937501C54.91814453125 186.1820898437501 64.830390625 186.1820898437501 70.930234375 192.2819335937501L312.8125 434.1446484375L513.3253125 233.6318359375L554.6752148437499 192.2819335937501C560.7750585937499 186.1820898437501 570.6873046874999 186.1820898437501 576.7871484374999 192.2819335937501L621.0305664062499 236.5253515625001C627.1304101562499 242.6251953125001 627.1304101562499 252.5374414062501 621.0305664062499 258.6372851562501L379.1678515625 500.5z" />
    <glyph glyph-name="envelope-open-text"
      unicode="&#xE011;"
      horiz-adv-x="1001" d="M688.1875 516.140625V547.421875C688.1875 556.0633203125 681.1883203125001 563.0625 672.546875 563.0625H328.453125C319.8116796875001 563.0625 312.8125 556.0633203125 312.8125 547.421875V516.140625C312.8125 507.4991796875 319.8116796875001 500.5 328.453125 500.5H672.546875C681.1883203125001 500.5 688.1875 507.4991796875 688.1875 516.140625zM328.453125 625.625H672.546875C681.1883203125001 625.625 688.1875 632.6241796875 688.1875 641.265625V672.546875C688.1875 681.1883203125 681.1883203125001 688.1875 672.546875 688.1875H328.453125C319.8116796875001 688.1875 312.8125 681.1883203125 312.8125 672.546875V641.265625C312.8125 632.6241796875 319.8116796875001 625.625 328.453125 625.625zM966.96208984375 679.350546875C963.0910351562497 682.53732421875 923.57890625 714.36599609375 875.875 752.72462890625V813.3125C875.875 847.85873046875 847.8587304687501 875.875 813.3125 875.875H722.4600195312499C714.3855468749999 882.34630859375 707.3863671875 887.91828125 702.5182226562499 891.7893359375C659.3109960937501 926.33556640625 585.42859375 1001 500.5 1001C416.02107421875 1001 342.8425000000001 927.254453125 298.4622265625 891.7893359375C293.51587890625 887.85962890625 286.53625 882.26810546875 278.5204296875001 875.875H187.6875C153.14126953125 875.875 125.125 847.85873046875 125.125 813.3125V752.7441796875C77.186484375 714.20958984375 37.63525390625 682.34181640625 34.25296875 679.5656054687499A93.84766015625 93.84766015625 0 0 1 0 607.090859375V93.84375C0 42.01462890625 42.01462890625 0 93.84375 0H907.15625C958.98537109375 0 1001 42.01462890625 1001 93.84375V607.03220703125C1001 635.0093750000001 988.5266015625 661.53978515625 966.96208984375 679.350546875zM500.5 938.4375C543.0620507812499 938.4375 587.7746875 905.74859375 623.9436328125 875.875H377.1345703125C413.36216796875 905.72904296875 458.11390625 938.4375 500.5 938.4375zM187.6875 813.3125H813.3125V474.3997070312499C750.1048242187501 423.56767578125 685.6458984375 371.87541015625 644.02228515625 338.8345898437499C611.0792187499999 312.5778906249999 545.8969140625 249.5266210937499 500.4999999999999 250.2499999999999C455.1226367187499 249.5070703124999 389.92078125 312.5778906249999 356.97771484375 338.8541406249999C315.3541015625 371.8949609374999 250.93427734375 423.5676757812498 187.6875 474.4192578124999V813.3125zM62.5625 607.090859375C62.5625 616.4752343750001 66.72681640625 625.29263671875 73.98015625 631.255625C76.404453125 633.2498046875 96.6981640625 649.5942578125 125.125 672.4686718749999V524.76251953125C102.58294921875 542.9056445312499 81.11619140625 560.2080859374998 62.5625 575.1644335937499V607.090859375zM938.4375 93.84375C938.4375 76.5999609375 924.4000390625 62.5625 907.15625 62.5625H93.84375C76.5999609375 62.5625 62.5625 76.5999609375 62.5625 93.84375V494.8107226562499C146.14208984375 427.47783203125 256.72130859375 338.56087890625 318.052109375 289.8794335937499C358.1116601562501 257.89435546875 428.9832421875001 187.1791796875 500.5 187.70705078125C571.76259765625 187.19873046875 641.7934960937499 257.03412109375 682.92833984375 289.8794335937499C744.3373437500001 338.61953125 854.838359375 427.4973828125001 938.4375 494.8302734375001V93.84375zM938.4375 575.16443359375C919.6296484375 560.012578125 898.8080664062501 543.21845703125 875.875 524.74296875V672.4295703125C904.106328125 649.7115625 924.3609375 633.38666015625 927.098046875 631.1383203125C934.31228515625 625.17533203125 938.4375 616.39703125 938.4375 607.03220703125V575.1644335937499z" />
    <glyph glyph-name="envelope"
      unicode="&#xE012;"
      horiz-adv-x="1001" d="M907.15625 875.875H93.84375C42.0341796875 875.875 0 833.8408203125 0 782.03125V218.96875C0 167.1591796875 42.0341796875 125.125 93.84375 125.125H907.15625C958.9658203125 125.125 1001 167.1591796875 1001 218.96875V782.03125C1001 833.8408203125 958.9658203125 875.875 907.15625 875.875zM93.84375 813.3125H907.15625C924.3609375 813.3125 938.4375 799.2359375 938.4375 782.03125V701.091015625C895.6212890625001 664.9220703125 834.42734375 615.067578125 644.0027343749999 463.9400390625C610.9619140625 437.7419921875001 545.8578125 374.5929687500001 500.4999999999999 375.375C455.1421875 374.5929687500001 389.842578125 437.7419921875 356.997265625 463.9400390625C166.57265625 615.067578125 105.3787109375 664.9220703125 62.5625 701.091015625V782.03125C62.5625 799.2359375 76.6390625 813.3125 93.84375 813.3125zM907.15625 187.6875H93.84375C76.6390625 187.6875 62.5625 201.7640625 62.5625 218.96875V619.759765625C107.13828125 583.1998046875001 177.52109375 526.698046875 318.0912109375 415.0630859375C358.1703125 382.9998046875001 428.944140625 312.421484375 500.5 312.8125C571.6648437499999 312.2259765625 641.8521484375 382.2177734375 682.9087890625 415.0630859375C823.4789062500001 526.698046875 893.8617187500001 583.1998046875001 938.4375 619.759765625V218.96875C938.4375 201.7640625 924.3609375 187.6875 907.15625 187.6875z" />
    <glyph glyph-name="home-lg-alt"
      unicode="&#xE013;"
      horiz-adv-x="1126.125" d="M1121.21384375 571.0705L607.2629062500001 985.359375C595.3134687500001 995.119125 579.8918125000001 1001.03128125 563.0937812500001 1001.03128125S530.8740937500002 995.119125 518.7995312500001 985.26553125L518.9246562500002 985.359375L4.9737187500002 571.0705C1.9707187500002 568.6305625 0.0312812500002 564.97065625 0.0312812500002 560.81025C0.0312812500002 557.6508437499999 1.1574062500002 554.7416875 3.0342812500002 552.45815625L3.0030000000002 552.4894375L30.7494687500002 518.26775C33.2206875000002 515.23346875 36.9431562500002 513.3253125000001 41.1035625000002 513.3253125000001C44.2942500000002 513.3253125000001 47.2346875000002 514.4514375000001 49.5495000000002 516.3283125L49.5182187500002 516.2970312500001L125.1250000000002 577.2641875V31.2499687500001C125.1250000000002 13.9827187500001 139.1390000000002 -0.0312812499999 156.4062500000002 -0.0312812499999V-0.0312812499999H969.7187500000002C986.9860000000002 -0.0312812499999 1001.0000000000002 13.9827187500001 1001.0000000000002 31.2499687500001V31.2499687500001V577.0765000000001L1076.85703125 515.8903750000002C1079.1405625000002 514.0447812500001 1082.04971875 512.9186562500001 1085.2716875 512.9186562500001C1089.4320937500001 512.9186562500001 1093.1545625 514.8268125000002 1095.6257812500003 517.8298125000001L1095.6570625000002 517.8610937500001L1123.40353125 552.0827812500002C1125.124 554.3663125 1126.1562812500001 557.2754687500001 1126.1562812500001 560.40359375C1126.1562812500001 564.65784375 1124.248125 568.4741562500001 1121.2451250000004 571.0392187500001L1121.2138437500003 571.0705zM469.21875 62.5625V375.375H656.90625V62.5625zM938.4375 62.5625H719.46875V406.65625C719.46875 423.9235 705.45475 437.9375 688.1875 437.9375V437.9375H437.9375C420.67025 437.9375 406.65625 423.9235 406.65625 406.65625V406.65625V62.5625H187.6875V627.7208437500001L554.679125 923.7353125C556.90009375 925.549625 559.77796875 926.67575 562.8748125 926.67575S568.8808125 925.58090625 571.10178125 923.7353125L571.0705 923.76659375L938.4062187500002 627.627z" />
    <glyph glyph-name="map-marker-alt"
      unicode="&#xE014;"
      horiz-adv-x="750.75" d="M375.375 813.3125C271.882939453125 813.3125 187.6875 729.117060546875 187.6875 625.625S271.882939453125 437.9375 375.375 437.9375S563.0625 522.132939453125 563.0625 625.625S478.867060546875 813.3125 375.375 813.3125zM375.375 500.5C306.3802929687501 500.5 250.25 556.63029296875 250.25 625.625S306.3802929687501 750.75 375.375 750.75S500.5 694.61970703125 500.5 625.625S444.36970703125 500.5 375.375 500.5zM375.375 1001C168.060470703125 1001 0 832.939529296875 0 625.625C0 474.276537109375 52.72845703125 432.011658203125 336.7973984375 20.1959570312499C355.43711328125 -6.72937890625 395.3109316406251 -6.7332890624999 413.954556640625 20.1959570312499C698.0215429687499 432.011658203125 750.75 474.276537109375 750.75 625.625C750.75 832.939529296875 582.689529296875 1001 375.375 1001zM375.375 74.427869140625C103.042392578125 468.264671875 62.5625 499.5341914062499 62.5625 625.625C62.5625 709.18112890625 95.100865234375 787.734212890625 154.183326171875 846.816673828125S291.81887109375 938.4375 375.375 938.4375S537.484212890625 905.899134765625 596.566673828125 846.816673828125S688.1875 709.18112890625 688.1875 625.625C688.1875 499.54201171875 647.7330234375 468.2998632812499 375.375 74.427869140625z" />
    <glyph glyph-name="menu"
      unicode="&#xE015;"
      horiz-adv-x="875.875" d="M864.14453125 778.12109375H11.73046875A11.730468750000002 11.730468750000002 0 0 0 0 789.8515625V836.7734375A11.730468750000002 11.730468750000002 0 0 0 11.73046875 848.50390625H864.14453125A11.730468750000002 11.730468750000002 0 0 0 875.875 836.7734375V789.8515625A11.730468750000002 11.730468750000002 0 0 0 864.14453125 778.12109375zM864.14453125 465.30859375H11.73046875A11.730468750000002 11.730468750000002 0 0 0 0 477.0390625V523.9609375A11.730468750000002 11.730468750000002 0 0 0 11.73046875 535.69140625H864.14453125A11.730468750000002 11.730468750000002 0 0 0 875.875 523.9609375V477.0390625A11.730468750000002 11.730468750000002 0 0 0 864.14453125 465.30859375zM864.14453125 152.49609375H11.73046875A11.730468750000002 11.730468750000002 0 0 0 0 164.2265625V211.1484375A11.730468750000002 11.730468750000002 0 0 0 11.73046875 222.87890625H864.14453125A11.730468750000002 11.730468750000002 0 0 0 875.875 211.1484375V164.2265625A11.730468750000002 11.730468750000002 0 0 0 864.14453125 152.49609375z" />
    <glyph glyph-name="minus-circle"
      unicode="&#xE016;"
      horiz-adv-x="1001" d="M273.7109375 465.30859375C260.807421875 465.30859375 250.25 475.8660156249999 250.25 488.76953125V512.23046875C250.25 525.133984375 260.807421875 535.69140625 273.7109375 535.69140625H727.2890625C740.1925781250001 535.69140625 750.75 525.133984375 750.75 512.23046875V488.76953125C750.75 475.8660156249999 740.1925781250001 465.30859375 727.2890625 465.30859375H273.7109375zM985.359375 500.5C985.359375 232.654296875 768.345703125 15.640625 500.5 15.640625S15.640625 232.654296875 15.640625 500.5S232.654296875 985.359375 500.5 985.359375S985.359375 768.345703125 985.359375 500.5zM922.796875 500.5C922.796875 734.9138671875 732.5677734375 922.796875 500.5 922.796875C266.0861328125 922.796875 78.203125 732.5677734374999 78.203125 500.5C78.203125 266.0861328125001 268.4322265625001 78.203125 500.5 78.203125C734.9138671874999 78.203125 922.796875 268.4322265625 922.796875 500.5z" />
    <glyph glyph-name="monitor"
      unicode="&#xE017;"
      horiz-adv-x="1001" d="M921.76459375 1001H79.2666875C35.4729375 1001 0.03128125 963.4625 0.03128125 917.57290625V344.09375C0.03128125 298.20415625 35.4729375 260.66665625 79.2666875 260.66665625H381.66253125L373.3104375 183.4958125C373.3104375 177.2395625 375.40628125 170.9833125 379.5666875 166.82290625S389.98334375 158.4708125 396.23959375 158.4708125H623.5604374999999C629.8166875 158.4708125 636.0729374999999 160.5666562499999 640.23334375 166.82290625C644.39375 170.9833124999999 646.4895937499999 177.2395624999999 646.4895937499999 183.4958125L638.1374999999999 260.66665625H921.76459375C965.55834375 260.66665625 1001 298.20415625 1001 344.09375V917.57290625C1001 963.4625 965.55834375 1001 921.76459375 1001zM419.16875 204.36040625L425.425 262.7625000000001H594.34375L600.6 204.36040625zM957.20625 346.18959375C957.20625 325.325 940.5333437499997 308.6520937500001 919.66875 308.6520937500001H79.2354062499999C58.3708124999999 308.6520937500001 41.6979062499999 325.3250000000001 41.6979062499999 346.18959375V371.2145937500001H957.20625zM957.20625 412.9125H43.79375V917.57290625C43.79375 938.4375 60.46665625 955.11040625 81.33125 955.11040625H921.76459375C942.6291875 955.11040625 959.30209375 938.4375 959.30209375 917.57290625V412.9125zM877.9708437499999 116.7729062499999C873.8104374999999 125.1249999999999 867.5541874999999 129.2854062499998 859.2020937499999 129.2854062499998H141.8291874999999C133.4770937499999 129.2854062499998 127.2208437499999 125.1249999999999 123.0604374999999 116.7729062499999L81.3625312499999 31.2812499999999C77.2021249999999 25.0249999999999 77.2021249999999 16.67290625 81.3625312499999 10.4166562499998S91.7791874999999 -2e-13 100.1312812499999 -2e-13H903.027125C911.37921875 -2e-13 917.6354687499997 4.1604062499997 921.795875 10.4166562499997S925.95628125 25.0249999999996 921.795875 31.2812499999998zM135.5416562499999 43.7937499999999L156.4062499999998 83.4270937499999H846.6895937499997L867.5541874999998 43.7937499999999z" />
    <glyph glyph-name="no-favorites"
      unicode="&#xE018;"
      horiz-adv-x="1001" d="M873.7895833333333 627.7104166666667C861.2770833333333 627.7104166666667 848.7645833333333 617.2833333333333 848.7645833333333 604.7708333333333C848.7645833333333 581.83125 844.5937499999999 560.9770833333332 836.2520833333333 540.1229166666666C827.9104166666666 519.26875 815.3979166666666 500.5 798.7145833333333 481.7312499999999L448.3645833333334 164.7479166666666L98.0145833333334 483.8166666666666C81.33125 500.5 70.9041666666667 519.26875 60.4770833333334 542.2083333333333C22.9395833333333 636.0520833333333 70.9041666666667 744.49375 166.8333333333334 782.03125C212.7125 800.8 264.8479166666667 798.7145833333334 310.7270833333334 779.9458333333333S392.0583333333334 723.6395833333333 410.8270833333334 677.7604166666666C419.16875 654.8208333333332 425.425 631.8812499999999 425.425 611.0270833333334C425.425 598.5145833333333 435.8520833333334 588.0875 448.3645833333334 588.0875C460.8770833333334 588.0875 471.3041666666667 598.5145833333333 471.3041666666667 611.0270833333334C471.3041666666667 633.9666666666667 475.475 656.90625 485.9020833333334 677.7604166666666C515.0979166666667 750.75 588.0875000000001 798.7145833333334 667.3333333333334 794.54375C679.8458333333334 794.54375 692.3583333333335 804.9708333333333 692.3583333333335 817.4833333333333C692.3583333333335 829.9958333333333 681.9312500000001 842.5083333333333 669.41875 842.5083333333333C575.575 844.59375 490.0729166666667 792.4583333333333 450.45 711.1270833333333C425.4250000000001 761.1770833333333 383.7166666666668 800.8 331.5812500000001 823.7395833333333C271.1041666666668 848.7645833333333 206.4562500000001 848.7645833333333 148.0645833333334 825.825C27.1104166666667 777.8604166666667 -31.28125 642.3083333333334 16.6833333333333 521.3541666666666C27.1104166666667 494.24375 43.79375 469.21875 62.5625 448.3645833333333L64.6479166666667 446.2791666666666L431.6812500000001 112.6125C435.8520833333334 108.4416666666665 442.1083333333334 106.3562499999999 448.3645833333335 106.3562499999999C454.6208333333335 106.3562499999999 460.8770833333335 108.4416666666667 465.0479166666668 112.6125L832.0812500000002 446.2791666666666L834.1666666666669 448.3645833333333C855.0208333333335 469.21875 869.6187500000002 494.24375 880.0458333333336 521.3541666666666C890.472916666667 548.4645833333334 896.7291666666669 575.575 896.7291666666669 602.6854166666667C896.7291666666669 617.2833333333333 886.3020833333335 627.7104166666666 873.7895833333336 627.7104166666666zM884.2166666666667 744.4937500000001L992.6583333333334 852.9354166666667C1001 861.2770833333334 1001 877.9604166666667 992.6583333333334 886.3020833333334C984.3166666666668 894.6437500000001 967.6333333333334 894.6437500000001 959.2916666666669 886.3020833333334L850.85 777.8604166666667L742.4083333333333 886.3020833333334C734.0666666666666 894.6437500000001 717.3833333333332 894.6437500000001 709.0416666666665 886.3020833333334C700.6999999999999 877.9604166666667 700.6999999999999 861.2770833333334 709.0416666666665 852.9354166666667L817.4833333333332 744.49375L709.0416666666665 636.0520833333333C700.6999999999999 627.7104166666667 700.6999999999999 611.0270833333334 709.0416666666665 602.6854166666667C713.2125 598.5145833333333 719.4687499999999 596.4291666666666 725.7249999999998 596.4291666666666S738.2374999999998 598.5145833333333 742.4083333333331 602.6854166666667L850.8499999999998 711.1270833333333L959.2916666666666 602.6854166666667C963.4625 598.5145833333333 969.7187499999998 596.4291666666666 975.9749999999998 596.4291666666666S988.4874999999998 598.5145833333333 992.658333333333 602.6854166666667C1000.9999999999998 611.0270833333333 1000.9999999999998 627.7104166666666 992.658333333333 636.0520833333333L884.2166666666664 744.49375z" />
    <glyph glyph-name="parking-circle"
      unicode="&#xE019;"
      horiz-adv-x="969.71875" d="M524.1564453125001 750.9259570312499H344.09375C335.4523046875001 750.9259570312499 328.453125 743.92677734375 328.453125 735.2853320312499V266.0665820312501C328.453125 257.4251367187501 335.4523046875001 250.4259570312501 344.09375 250.4259570312501H375.375C384.0164453125 250.4259570312501 391.015625 257.4251367187501 391.015625 266.0665820312501V406.8322070312501H531.78125C632.33091796875 406.8322070312501 712.977890625 493.4812695312501 702.98744140625 596.04466796875C694.28734375 685.4112890625001 613.9531835937499 750.92595703125 524.1564453125001 750.92595703125zM531.78125 469.3947070312501H391.015625V688.36345703125H531.78125C592.1540625 688.36345703125 641.265625 639.2518945312501 641.265625 578.87908203125S592.1540625 469.3947070312501 531.78125 469.3947070312501zM484.859375 985.359375C217.07232421875 985.359375 0 768.28705078125 0 500.5S217.07232421875 15.640625 484.859375 15.640625S969.71875 232.71294921875 969.71875 500.5S752.6464257812501 985.359375 484.859375 985.359375zM484.859375 78.203125C252.0095703125 78.203125 62.5625 267.6501953125 62.5625 500.5S252.0095703125 922.796875 484.859375 922.796875S907.15625 733.3498046875 907.15625 500.5S717.7091796875001 78.203125 484.859375 78.203125z" />
    <glyph glyph-name="phone-office"
      unicode="&#xE01A;"
      horiz-adv-x="1126.125" d="M688.1875 375.375H625.625C591.0905 375.375 563.0625 347.2844375 563.0625 312.8125V250.25C563.0625 215.7780625 591.0905 187.6875 625.625 187.6875H688.1875C722.722 187.6875 750.75 215.7780625 750.75 250.25V312.8125C750.75 347.2844375 722.722 375.375 688.1875 375.375zM688.1875 250.25H625.625V312.8125H688.1875V250.25zM688.1875 625.625H625.625C591.0905 625.625 563.0625 597.5344375 563.0625 563.0625V500.5C563.0625 466.0280625 591.0905 437.9375 625.625 437.9375H688.1875C722.722 437.9375 750.75 466.0280625 750.75 500.5V563.0625C750.75 597.5344375 722.722 625.625 688.1875 625.625zM688.1875 500.5H625.625V563.0625H688.1875V500.5zM938.4375 375.375H875.875C841.3405 375.375 813.3125 347.2844375 813.3125 312.8125V250.25C813.3125 215.7780625 841.3405 187.6875 875.875 187.6875H938.4375C972.972 187.6875 1001 215.7780625 1001 250.25V312.8125C1001 347.2844375 972.972 375.375 938.4375 375.375zM938.4375 250.25H875.875V312.8125H938.4375V250.25zM938.4375 625.625H875.875C841.3405 625.625 813.3125 597.5344375 813.3125 563.0625V500.5C813.3125 466.0280625 841.3405 437.9375 875.875 437.9375H938.4375C972.972 437.9375 1001 466.0280625 1001 500.5V563.0625C1001 597.5344375 972.972 625.625 938.4375 625.625zM938.4375 500.5H875.875V563.0625H938.4375V500.5zM1001 938.4375H463.463C450.54384375 974.81759375 416.16575 1001 375.375 1001H250.25C209.45925 1001 175.08115625 974.7863125 162.162 938.4375H125.125C56.02471875 938.4375 0 882.41278125 0 813.3125V125.125C0 56.02471875 56.02471875 0 125.125 0H1001C1070.10028125 0 1126.125 56.02471875 1126.125 125.125V813.3125C1126.125 882.41278125 1070.10028125 938.4375 1001 938.4375zM625.625 875.875H938.4375V750.75H625.625V875.875zM218.96875 907.15625C218.96875 924.39221875 233.01403125 938.4375 250.25 938.4375H375.375C392.61096875 938.4375 406.65625 924.39221875 406.65625 907.15625V250.25C406.65625 233.01403125 392.61096875 218.96875 375.375 218.96875H250.25C233.01403125 218.96875 218.96875 233.01403125 218.96875 250.25V907.15625zM1063.5625 125.125C1063.5625 90.6530625 1035.4719375 62.5625 1001 62.5625H125.125C90.62178125 62.5625 62.5625 90.6530625 62.5625 125.125V813.3125C62.5625 847.81571875 90.62178125 875.875 125.125 875.875H156.40625V250.25C156.40625 198.41696875 198.41696875 156.40625 250.25 156.40625H375.375C427.20803125 156.40625 469.21875 198.41696875 469.21875 250.25V875.875H563.0625V750.75C563.0625 716.2780625 591.0905 688.1875 625.625 688.1875H938.4375C972.972 688.1875 1001 716.2780625 1001 750.75V875.875C1035.4719375 875.875 1063.5625 847.81571875 1063.5625 813.3125V125.125z" />
    <glyph glyph-name="phone-square"
      unicode="&#xE01B;"
      horiz-adv-x="875.875" d="M782.03125 938.4375H93.84375C42.01462890625 938.4375 0 896.42287109375 0 844.59375V156.40625C0 104.57712890625 42.01462890625 62.5625 93.84375 62.5625H782.03125C833.86037109375 62.5625 875.875 104.57712890625 875.875 156.40625V844.59375C875.875 896.42287109375 833.86037109375 938.4375 782.03125 938.4375zM813.3125 156.40625C813.3125 139.15855078125 799.27894921875 125.125 782.03125 125.125H93.84375C76.59605078125 125.125 62.5625 139.15855078125 62.5625 156.40625V844.59375C62.5625 861.84144921875 76.59605078125 875.875 93.84375 875.875H782.03125C799.27894921875 875.875 813.3125 861.84144921875 813.3125 844.59375V156.40625zM706.043228515625 785.442861328125L591.6731132812499 811.82273046875A57.622017578124996 57.622017578124996 0 0 1 525.6931367187499 778.345927734375L472.9040722656249 655.18578125C462.8432402343749 631.7013828125 469.6234511718749 604.003791015625 489.39515625 587.831384765625L536.5692363281249 549.234232421875A375.38673046875005 375.38673046875005 0 0 0 389.2032675781249 401.8702187500001L350.6100253906249 449.040388671875C334.4356640624999 468.8160039062501 306.7380722656249 475.594259765625 283.2517187499999 465.5314726562501L160.0974374999999 412.7482734375001C134.4116210937499 401.7411835937501 120.3311484374999 373.9908046875001 126.6167246093749 346.7682968750002L152.9985488281249 232.3942714843752C159.071021484375 206.071099609375 182.182 187.6875 209.193359375 187.6875C508.384830078125 187.6875 750.75 429.7633183593751 750.75 729.244140625C750.75 756.2594101562499 732.366400390625 779.3703886718749 706.043228515625 785.442861328125zM213.078099609375 250.265640625L188.485171875 356.8525898437499L304.5151484375 406.5800019531249L372.1628066406249 323.9036582031249C493.1684570312499 380.6693515625 556.3018398437499 442.1546035156249 614.5397070312499 566.2766484375L531.859453125 633.9262617187499L581.5888203124999 749.9562382812499L688.1757695312498 725.3633105468748C686.1092519531248 463.9615449218749 474.9588593749999 252.3341132812499 213.0780996093748 250.2656406249999z" />
    <glyph glyph-name="phone-volume"
      unicode="&#xE01C;"
      horiz-adv-x="875.875" d="M302.83378125 633.8206875000001C331.58125 630.88025 358.95234375 647.521875 369.71309375 674.298625L433.2453125 832.67559375C444.97578125 861.7984375000001 434.02734375 895.05040625 407.25059375 911.8484375L280.154875 991.02128125C254.34784375 1007.03728125 221.31484375 1003.34609375 199.79334375 981.82459375C-67.067 715.55859375 -66.47265625 284.6280937500001 199.79334375 18.9564375000001C221.31484375 -2.5337812499998 254.34784375 -6.2562499999999 280.154875 9.7597500000001L407.25059375 88.93259375C434.02734375 105.5429375 444.7880937499999 138.7949062500001 433.2453125 168.1054375L369.71309375 326.48240625C358.95234375 353.07146875 331.58125 369.6818125 302.8650624999999 366.96034375L218.4056874999999 358.5456875C190.0648749999999 450.825375 190.0648749999999 549.95565625 218.4056874999999 642.2353437500001zM175.550375 291.50996875L309.27771875 304.8045C310.2474375000001 304.9921875 311.2484375 304.429125 311.6238125 303.428125L375.15603125 145.05115625C375.5314062500001 144.0814375000001 375.15603125 142.8927500000001 374.1863125 142.3296875L247.09059375 63.15684375C246.120875 62.5625000000001 244.9321875 62.7814687500001 244.15015625 63.5322187500001C1.90815625 304.9921875000001 2.127125 696.1955 244.15015625 937.65546875C244.9321875 938.4375 246.120875 938.6251875 247.09059375 938.062125L374.1863125 858.8892812500001C375.15603125 858.2949375000001 375.5626875 857.13753125 375.15603125 856.13653125L311.6238125 697.79084375C311.2484375 696.8211249999999 310.2474375 696.2267812499999 309.27771875 696.41446875L175.550375 709.7090000000001C119.4318125 555.0545 121.59021875 440.0959062500001 175.550375 291.5099687500001zM571.2581875 819.3810625L559.52771875 808.2449375C551.89509375 801.01896875 550.14334375 789.4761875 555.0232187500001 780.0918125000001C564.5952812500001 761.6984375 564.5952812500001 739.8015625 555.0232187500001 721.62715625C550.1433437500001 712.24278125 551.89509375 700.6999999999999 559.52771875 693.4740312499999L571.2581875 682.33790625C582.206625 671.76484375 600.19334375 674.32990625 607.82596875 687.40546875C630.91153125 726.50703125 630.91153125 775.399625 607.82596875 814.688875C600.19334375 827.3890624999999 582.3943125000001 829.92284375 571.2581875 819.3810625zM697.97853125 904.81015625C689.3761875 915.75859375 673.1412187499999 917.13496875 662.9748125 907.3439375L651.61971875 896.3955C643.017375 888.16853125 641.8286875 874.6863125 649.0859375 865.3019375C700.8876875 797.671875 700.8876875 703.828125 649.0859375 636.35446875C641.8599687499999 626.9700937499999 643.017375 613.487875 651.61971875 605.2609062500001L662.9748125 594.31246875C673.1412187499999 584.74040625 689.3761875 585.8978125 697.97853125 596.84625C768.54903125 687.15521875 768.54903125 814.06325 697.97853125 904.778875zM787.69315625 992.58534375C778.903125 1002.9394375 763.2625 1003.72146875 753.28378125 994.33709375L741.9286875 983.38865625C732.9196875 974.7863125 732.1376562500001 960.8974375 740.1769375 951.325375C837.3365 834.99040625 837.1488125 666.07165625 740.1769375 549.7366875C732.356625 540.3523125 733.1386562499999 526.27575 741.9286875 517.67340625L753.28378125 506.7249687500001C763.0748124999999 497.34059375 778.9031249999999 498.1226250000001 787.69315625 508.47671875C905.37321875 648.8356875 905.18553125 852.7581562500001 787.69315625 992.5540625z" />
    <glyph glyph-name="play-circle"
      unicode="&#xE01D;"
      horiz-adv-x="1001" d="M500.5 15.640625C768.3613437500001 15.640625 985.359375 232.6699375 985.359375 500.5S768.3300625 985.359375 500.5 985.359375S15.640625 768.3300624999999 15.640625 500.5S232.6699375 15.640625 500.5 15.640625zM78.203125 500.5C78.203125 732.57559375 266.0783125 922.796875 500.5 922.796875C732.57559375 922.796875 922.796875 734.9216875 922.796875 500.5C922.796875 268.42440625 734.9216875 78.203125 500.5 78.203125C268.42440625 78.203125 78.203125 266.0783125000001 78.203125 500.5zM726.6947187500001 535.69140625L382.6009687500001 744.90040625C351.6950937500001 762.1050937499999 312.8125000000001 740.02053125 312.8125000000001 703.828125V297.171875C312.8125000000001 261.1984375000001 351.5386875000001 238.89490625 382.6009687500001 256.0995937500001L726.6947187500001 453.578125C758.758 471.37715625 758.758 517.7046875000001 726.6947187500001 535.69140625zM375.375 344.469125V655.12321875C375.375 664.31990625 385.3537187500001 669.9818124999999 393.17403125 665.1019375000001L656.1242187500001 505.379875C663.75684375 500.6876875 663.56915625 489.5515625 655.93653125 485.23475L392.98634375 334.3027187500001C385.16603125 329.7982187500001 375.375 335.4914062500001 375.375 344.469125z" />
    <glyph glyph-name="plus-circle"
      unicode="&#xE01E;"
      horiz-adv-x="1001" d="M750.75 512.23046875V488.76953125C750.75 475.850375 740.20821875 465.30859375 727.2890625 465.30859375H535.69140625V273.7109375C535.69140625 260.79178125 525.149625 250.25 512.23046875 250.25H488.76953125C475.88165625 250.25 465.30859375 260.79178125 465.30859375 273.7109375V465.30859375H273.7109375C260.8230625 465.30859375 250.25 475.850375 250.25 488.76953125V512.23046875C250.25 525.11834375 260.8230625 535.69140625 273.7109375 535.69140625H465.30859375V727.2890625C465.30859375 740.1769375 475.88165625 750.75 488.76953125 750.75H512.23046875C525.149625 750.75 535.69140625 740.1769375 535.69140625 727.2890625V535.69140625H727.2890625C740.20821875 535.69140625 750.75 525.11834375 750.75 512.23046875zM985.359375 500.5C985.359375 232.63865625 768.3300625 15.640625 500.5 15.640625S15.640625 232.6699375 15.640625 500.5S232.6699375 985.359375 500.5 985.359375S985.359375 768.3300624999999 985.359375 500.5zM922.796875 500.5C922.796875 734.9216875 732.57559375 922.796875 500.5 922.796875C266.0783125 922.796875 78.203125 732.57559375 78.203125 500.5C78.203125 266.0783125000001 268.42440625 78.203125 500.5 78.203125C734.9216875 78.203125 922.796875 268.42440625 922.796875 500.5z" />
    <glyph glyph-name="plus"
      unicode="&#xE01F;"
      horiz-adv-x="750.75" d="M735.109375 547.421875H422.296875V860.234375C422.296875 868.8679999999999 415.289875 875.875 406.65625 875.875H344.09375C335.460125 875.875 328.453125 868.8679999999999 328.453125 860.234375V547.421875H15.640625C7.007 547.421875 0 540.4148749999999 0 531.78125V469.21875C0 460.5851250000001 7.007 453.578125 15.640625 453.578125H328.453125V140.765625C328.453125 132.1320000000001 335.460125 125.125 344.09375 125.125H406.65625C415.289875 125.125 422.296875 132.1320000000001 422.296875 140.765625V453.578125H735.109375C743.7429999999999 453.578125 750.75 460.5851250000001 750.75 469.21875V531.78125C750.75 540.4148749999999 743.7429999999999 547.421875 735.109375 547.421875z" />
    <glyph glyph-name="quote"
      unicode="&#xE020;"
      horiz-adv-x="1345.09375" d="M-0.125125 370.0259062500001C-0.125125 134.9160312500001 158.94003125 0.1876875 335.3975625000001 0.1876875C500.96921875 1.75175 634.759125 135.60421875 636.2293437500001 301.01946875L636.2293437500001 301.1445937500002C636.2293437500001 461.7112500000001 523.4291562500001 567.78596875 384.6029687500001 567.78596875C383.5081250000001 567.8172500000001 382.2255937500001 567.8172500000001 380.9430625000001 567.8172500000001C355.355 567.8172500000001 330.7679375000001 563.65684375 307.77621875 555.96165625L309.40284375 556.430875C347.00290625 665.32090625 480.0420625 791.5407500000001 572.60328125 831.5807500000001L361.45484375 1000.84359375C135.85446875 843.09225 -0.09384375 622.3091875 -0.09384375 370.0259062500001zM714.30734375 370.0259062500001C714.30734375 134.9160312500001 873.3725000000001 0.1876875 1049.83003125 0.1876875C1215.4016875 1.72046875 1349.222875 135.5729375 1350.6930937500001 301.01946875L1350.6930937500001 301.1445937500002C1350.6930937500001 461.7112500000001 1237.8929062500001 567.78596875 1099.06671875 567.78596875C1097.9718750000002 567.8172500000001 1096.68934375 567.8172500000001 1095.4068125000003 567.8172500000001C1069.8187500000004 567.8172500000001 1045.2316875000004 563.65684375 1022.2399687500002 555.96165625L1023.8665937500002 556.430875C1061.4666562500001 665.32090625 1194.5058125000003 791.5407500000001 1287.0670312500004 831.5807500000001L1075.9185937500004 1000.84359375C850.2869375000002 843.09225 714.3386250000004 622.3091875 714.3386250000004 370.0259062500001z" />
    <glyph glyph-name="quote_left"
      unicode="&#xE021;"
      horiz-adv-x="1001" d="M339.93334375 625.625C325.325 631.8812499999999 308.65209375 636.04165625 294.04375 642.29790625C285.6916562500001 644.39375 283.6270937500001 648.55415625 285.6916562500001 658.9708125C289.8520625000001 681.89996875 298.2041562500001 702.7645625 306.5562500000001 723.62915625C325.325 763.2624999999999 348.2541562500001 800.8 375.375 840.4020625C369.1187500000001 838.30621875 367.02290625 838.30621875 364.95834375 838.30621875C231.48125 792.416625 127.22084375 711.085375 52.14584375 592.216625C20.86459375 538.00621875 4.1916875 481.6999687499999 0 421.20203125C-6.25625 285.660375 93.84375 135.5103750000001 281.53125 166.7916250000001C387.8875 185.560375 467.12290625 268.9874687500001 479.63540625 379.5041250000001C492.14790625 481.69996875 435.84165625 581.7999687500001 339.9020625 625.5937187500001zM971.81459375 521.36459375C940.53334375 579.7666875 890.48334375 617.3041875 827.92084375 638.1375C802.8958437499999 646.48959375 802.8958437499999 646.48959375 809.15209375 673.5791562500001C815.4083437499999 698.6041562500001 825.8249999999999 719.46875 836.2729374999999 742.39790625C852.94584375 775.7750000000001 873.8104374999999 807.0562500000001 894.67503125 838.3375000000001C884.258375 838.3375000000001 878.002125 836.24165625 869.65003125 832.08125C777.902125 798.70415625 700.7312812499999 744.4937500000001 636.0729375 673.5791562500001C575.6062812499999 606.85625 531.8125312499999 531.78125 521.36459375 440.0020625000001C504.6916875 296.1083125 606.85625 133.4458125000001 800.8000000000001 166.8229062500001C963.4625 196.0083125000001 1051.05 375.375 971.81459375 521.3333125000001z" />
    <glyph glyph-name="search-plus"
      unicode="&#xE022;"
      horiz-adv-x="1001" d="M626.4695937500001 601.38203125V585.7101250000001C626.4383124999999 572.72840625 615.9278125000001 562.2179062499999 602.94609375 562.186625H438.4067187500001V397.64725C438.3441562500001 384.6968125 427.8336562500001 374.1863125 414.8832187500001 374.15503125H399.2425937500001C386.2608750000001 374.1863125 375.7816562500001 384.6968125 375.71909375 397.64725V562.186625H211.17971875C198.198 562.2179062499999 187.6875 572.72840625 187.6562187500001 585.7101250000001V601.3507500000001C187.6562187500001 614.3011875 198.2292812500001 624.8742500000001 211.17971875 624.8742500000001H375.71909375V789.413625C375.71909375 802.3640625 386.29215625 812.937125 399.2113125 812.937125H414.88321875C427.83365625 812.937125 438.4067187500001 802.3640625 438.4067187500001 789.44490625V624.90553125H602.9460937499999C615.86525 624.90553125 626.46959375 614.3011875 626.46959375 601.38203125zM995.6821875 27.43365625L973.5350625 5.2865312500001C969.2808125 1.03228125 963.3999375 -1.5953437500001 956.8934375 -1.5953437500001S944.5060625 1.03228125 940.2518125 5.3178124999999V5.3178124999999L687.53059375 258.0077499999999C683.3076249999999 262.23071875 680.68 268.04903125 680.68 274.49296875C680.68 274.55553125 680.68 274.61809375 680.68 274.68065625V274.68065625V291.3535625C608.95209375 226.1008750000001 513.2001875 186.15471875 408.12646875 186.15471875C407.87621875 186.15471875 407.62596875 186.15471875 407.37571875 186.15471875H407.407C407.12546875 186.15471875 406.81265625 186.15471875 406.49984375 186.15471875C183.52709375 186.15471875 2.47121875 365.6778125000001 0 588.0875000000001L0 588.30646875C-2.9404375 817.5041875 183.558375 1004.003 412.75609375 1001.0625625C635.38475 998.5600625 814.8765625 817.5354687500001 814.8765625 594.56271875C814.8765625 594.2186250000001 814.8765625 593.87453125 814.8765625 593.5617187500001V593.6242812500001C814.8765625 488.4567187500001 775.11809375 392.6422500000001 709.67771875 320.3825625000002H726.31934375C732.57559375 320.3825625000002 738.48775 317.8175000000001 742.9922500000001 313.5006875000002L995.6821875 60.8107500000002C999.9364375 56.5565000000003 1002.59534375 50.6756250000002 1002.59534375 44.1691250000002S999.96771875 31.7817500000002 995.6821875 27.5275000000001V27.5275000000001zM752.1889375 593.5304375000001C752.1889375 784.12709375 598.0349375 938.312375 407.407 938.312375S62.687625 784.12709375 62.687625 593.5304375000001S216.841625 248.77978125 407.43828125 248.77978125S752.2202187500001 402.9337812500001 752.2202187500001 593.5304375000001z" />
    <glyph glyph-name="search"
      unicode="&#xE023;"
      horiz-adv-x="1001" d="M994.1572265625 59.4343749999999L741.9521484375 311.639453125C737.45546875 316.1361328125 731.590234375 318.4822265625 725.333984375 318.4822265625H705.1966796875C772.255859375 391.015625 813.3125 487.7919921875 813.3125 594.34375C813.3125 818.9822265625 631.2947265624999 1001 406.65625 1001S0 818.9822265625 0 594.34375S182.0177734375 187.6875 406.65625 187.6875C513.2080078125 187.6875 609.984375 228.744140625 682.5177734375001 295.6078125V275.666015625C682.5177734375001 269.409765625 685.059375 263.54453125 689.3605468750001 259.0478515625L941.565625 6.8427734375C950.7544921875 -2.3460937500001 965.6130859375 -2.3460937500001 974.801953125 6.8427734375L994.1572265625 26.1980468749999C1003.3460937500003 35.3869140625 1003.3460937500003 50.2455078125 994.1572265625 59.4343749999999zM406.65625 250.25C216.4271484375 250.25 62.5625 404.1146484375 62.5625 594.34375S216.4271484375 938.4375 406.65625 938.4375S750.75 784.5728515625 750.75 594.34375S596.8853515625 250.25 406.65625 250.25z" />
    <glyph glyph-name="shield-check"
      unicode="&#xE024;"
      horiz-adv-x="1001" d="M912.0439453125 837.3599609375L536.6689453125 993.7662109375A94.13701171875 94.13701171875 0 0 1 464.5265625 993.7662109375L89.1515625 837.3599609375C54.1556640625 822.8923828125 31.28125 788.678515625 31.28125 750.75C31.28125 362.6669921875 255.1376953125 94.4302734375 464.3310546875 7.2337890625C487.4009765625 -2.3460937500001 513.4035156250001 -2.3460937500001 536.4734374999999 7.2337890625C704.0236328125001 77.0300781249999 969.71875 318.0912109375 969.71875 750.75C969.71875 788.678515625 946.8443359375 822.8923828125 912.0439453125 837.3599609375zM512.621484375 64.90859375C504.801171875 61.78046875 496.198828125 61.78046875 488.5740234374999 64.90859375C297.171875 140.765625 93.84375 406.65625 93.84375 750.75C93.84375 763.4580078125 101.4685546875 774.7974609375 113.003515625 779.68515625L488.378515625 936.09140625C496.0033203125 939.21953125 504.801171875 939.21953125 512.4259765625001 936.09140625L887.8009765625001 779.68515625C899.5314453125001 774.7974609375 907.15625 763.4580078125 906.9607421875 750.75C907.1562500000002 406.65625 703.828125 140.765625 512.6214843750001 64.90859375zM778.9031249999999 700.3089843749999C769.7142578125 709.4978515624999 754.8556640625 709.4978515624999 745.6667968749999 700.5044921875L426.20703125 383.586328125L291.306640625 519.4642578124999C282.1177734375001 528.6531249999999 267.2591796875 528.6531249999999 258.0703125 519.659765625L241.4521484375 503.0416015625C232.26328125 493.852734375 232.26328125 478.994140625 241.256640625 469.8052734374999L409.1978515625001 300.4955078124999C418.38671875 291.3066406249999 433.2453125000001 291.3066406249999 442.4341796875001 300.2999999999999L795.32578125 650.2589843749998C804.5146484375 659.4478515624999 804.5146484375 674.3064453124998 795.5212890625 683.4953124999998z" />
    <glyph glyph-name="shower"
      unicode="&#xE025;"
      horiz-adv-x="1001" d="M750.75 594.34375C750.75 577.066724609375 736.745775390625 563.0625 719.46875 563.0625S688.1875 577.066724609375 688.1875 594.34375S702.191724609375 625.625 719.46875 625.625S750.75 611.620775390625 750.75 594.34375zM844.59375 625.625C827.316724609375 625.625 813.3125 611.620775390625 813.3125 594.34375S827.316724609375 563.0625 844.59375 563.0625S875.875 577.066724609375 875.875 594.34375S861.870775390625 625.625 844.59375 625.625zM969.71875 625.625C952.441724609375 625.625 938.4375 611.620775390625 938.4375 594.34375S952.441724609375 563.0625 969.71875 563.0625S1001 577.066724609375 1001 594.34375S986.995775390625 625.625 969.71875 625.625zM656.90625 563.0625C639.629224609375 563.0625 625.625 549.058275390625 625.625 531.78125S639.629224609375 500.5 656.90625 500.5S688.1875 514.504224609375 688.1875 531.78125S674.183275390625 563.0625 656.90625 563.0625zM782.03125 563.0625C764.754224609375 563.0625 750.75 549.058275390625 750.75 531.78125S764.754224609375 500.5 782.03125 500.5S813.3125 514.504224609375 813.3125 531.78125S799.308275390625 563.0625 782.03125 563.0625zM907.15625 563.0625C889.879224609375 563.0625 875.875 549.058275390625 875.875 531.78125S889.879224609375 500.5 907.15625 500.5S938.4375 514.504224609375 938.4375 531.78125S924.433275390625 563.0625 907.15625 563.0625zM594.34375 500.5C577.066724609375 500.5 563.0625 486.495775390625 563.0625 469.21875S577.066724609375 437.9375 594.34375 437.9375S625.625 451.941724609375 625.625 469.21875S611.620775390625 500.5 594.34375 500.5zM719.46875 500.5C702.191724609375 500.5 688.1875 486.495775390625 688.1875 469.21875S702.191724609375 437.9375 719.46875 437.9375S750.75 451.941724609375 750.75 469.21875S736.745775390625 500.5 719.46875 500.5zM844.59375 500.5C827.316724609375 500.5 813.3125 486.495775390625 813.3125 469.21875S827.316724609375 437.9375 844.59375 437.9375S875.875 451.941724609375 875.875 469.21875S861.870775390625 500.5 844.59375 500.5zM656.90625 437.9375C639.629224609375 437.9375 625.625 423.933275390625 625.625 406.65625S639.629224609375 375.375 656.90625 375.375S688.1875 389.379224609375 688.1875 406.65625S674.183275390625 437.9375 656.90625 437.9375zM782.03125 437.9375C764.754224609375 437.9375 750.75 423.933275390625 750.75 406.65625S764.754224609375 375.375 782.03125 375.375S813.3125 389.379224609375 813.3125 406.65625S799.308275390625 437.9375 782.03125 437.9375zM594.34375 375.375C577.066724609375 375.375 563.0625 361.370775390625 563.0625 344.09375S577.066724609375 312.8125 594.34375 312.8125S625.625 326.816724609375 625.625 344.09375S611.620775390625 375.375 594.34375 375.375zM719.46875 375.375C702.191724609375 375.375 688.1875 361.370775390625 688.1875 344.09375S702.191724609375 312.8125 719.46875 312.8125S750.75 326.816724609375 750.75 344.09375S736.745775390625 375.375 719.46875 375.375zM656.90625 312.8125C639.629224609375 312.8125 625.625 298.808275390625 625.625 281.53125S639.629224609375 250.25 656.90625 250.25S688.1875 264.254224609375 688.1875 281.53125S674.183275390625 312.8125 656.90625 312.8125zM594.34375 250.25C577.066724609375 250.25 563.0625 236.245775390625 563.0625 218.96875S577.066724609375 187.6875 594.34375 187.6875S625.625 201.691724609375 625.625 218.96875S611.620775390625 250.25 594.34375 250.25zM745.226904296875 818.8355957031249L756.273095703125 807.789404296875C765.4345917968749 798.6279082031249 765.4345917968749 783.7732246093749 756.273095703125 774.6097734374999L414.075771484375 432.4144042968749C404.914275390625 423.252908203125 390.059591796875 423.252908203125 380.896140625 432.4144042968749L369.851904296875 443.4605957031249C360.690408203125 452.6220917968748 360.690408203125 467.4767753906249 369.851904296875 476.6402265624998L386.38208984375 493.1704121093749C340.512046875 533.7539238281249 312.8125 592.507931640625 312.8125 656.90625C312.8125 720.694583984375 339.7554316406251 778.230578125 384.62251953125 819.07998046875C350.0450078125 854.56855859375 301.5903515625 876.4615234375 248.11114453125 875.86326953125C144.931896484375 874.707818359375 62.5625 789.18292578125 62.5625 685.9958574218749V62.5625H0V685.3800078125C0 824.262892578125 113.6369609375 939.6652890625 252.515935546875 938.427724609375C325.823544921875 937.774728515625 391.697947265625 905.43969140625 437.1163671875 854.4864453125C522.443796875 895.4336015625 629.0659375 877.40778125 695.51904296875 802.30541015625L712.0492285156249 818.835595703125C721.2107246093749 827.997091796875 736.065408203125 827.997091796875 745.2269042968749 818.835595703125zM651.1583203125 757.9446875C592.967375 827.279578125 486.3569648437501 832.67950390625 421.18248046875 767.50501953125C420.9869726562501 767.3095117187501 420.79146484375 767.11400390625 420.59595703125 766.8989453125C355.7381953125 701.3881875 361.95143359375 595.27045703125 430.7428125 537.5291796875L651.1583203125 757.9446875z" />
    <glyph glyph-name="sync"
      unicode="&#xE026;"
      horiz-adv-x="1001" d="M961.8984375 985.359375H942.34765625C929.391353515625 985.359375 918.88671875 974.854740234375 918.88671875 961.8984375V745.614009765625C834.6795488281249 889.050271484375 678.850046875 985.359375 500.5 985.359375C240.9203671875 985.359375 28.982078125 781.37043359375 16.24669921875 524.952162109375C15.583927734375 511.622439453125 26.344677734375 500.5 39.690041015625 500.5H59.272103515625C71.69271484375 500.5 82.040943359375 510.175681640625 82.68807421875 522.578697265625C94.150697265625 742.507390625 275.855658203125 918.88671875 500.5 918.88671875C662.5016835937499 918.88671875 803.0229238281249 826.847505859375 872.529861328125 692.09765625H649.0859375C636.1296347656249 692.09765625 625.625 681.593021484375 625.625 668.63671875V649.0859375C625.625 636.129634765625 636.1296347656249 625.625 649.0859375 625.625H961.8984375C974.854740234375 625.625 985.359375 636.129634765625 985.359375 649.0859375V961.8984375C985.359375 974.854740234375 974.854740234375 985.359375 961.8984375 985.359375zM961.309958984375 500.5H941.7298515625C929.3111953125002 500.5 918.959056640625 490.824318359375 918.3138808593752 478.421302734375C906.845392578125 257.76141015625 724.44637890625 82.11328125 500.5 82.11328125C338.99490625 82.11328125 198.10415625 173.908109375 128.450587890625 308.90234375H351.9140625C364.870365234375 308.90234375 375.375 319.406978515625 375.375 332.36328125V351.9140625C375.375 364.8703652343751 364.870365234375 375.375 351.9140625 375.375H39.1015625C26.145259765625 375.375 15.640625 364.8703652343751 15.640625 351.9140625V39.1015625C15.640625 26.1452597656249 26.145259765625 15.640625 39.1015625 15.640625H58.65234375C71.608646484375 15.640625 82.11328125 26.1452597656249 82.11328125 39.1015625V255.3859902343751C166.320451171875 111.949728515625 322.151908203125 15.640625 500.5 15.640625C760.0815878906251 15.640625 972.017921875 219.62956640625 984.75330078125 476.047837890625C985.416072265625 489.377560546875 974.655322265625 500.5 961.309958984375 500.5z" />
    <glyph glyph-name="times"
      unicode="&#xE027;"
      horiz-adv-x="625.625" d="M380.38 498.9359375L622.96609375 256.3185625C625.8126875 253.47196875 627.5644374999999 249.5618125 627.5644374999999 245.21371875S625.8126874999999 236.95546875 622.96609375 234.1088749999999L578.578 189.7520625C575.73140625 186.90546875 571.82125 185.1537187500001 567.47315625 185.1537187500001S559.21490625 186.9054687500001 556.3683124999999 189.7520625V189.7520625L313.7509374999999 432.3694375L71.1335624999999 189.7520625C68.2869687499999 186.90546875 64.3768124999999 185.1537187500001 60.0287187499999 185.1537187500001S51.7704687499999 186.9054687500001 48.9238749999999 189.7520625L4.5670624999999 234.1088749999999C1.7204687499999 236.95546875 -0.0312812500001 240.865625 -0.0312812500001 245.21371875S1.7204687499999 253.47196875 4.5670624999999 256.3185625L247.1844374999999 498.9359375L4.5670624999999 741.5533125C1.7204687499999 744.39990625 -0.0312812500001 748.3100625 -0.0312812500001 752.65815625S1.7204687499999 760.91640625 4.5670624999999 763.763V763.763L48.9864374999999 808.1198125000001C51.8330312499999 810.935125 55.7431874999999 812.686875 60.0599999999999 812.686875S68.2869687499999 810.935125 71.1335624999999 808.1198125000001L313.7509374999999 565.5024375L556.3683124999999 808.1198125C559.21490625 810.96640625 563.1250625 812.71815625 567.47315625 812.71815625S575.73140625 810.96640625 578.578 808.1198125V808.1198125L622.9348124999999 763.7004375C625.7501249999999 760.85384375 627.5018749999999 756.9436875 627.5018749999999 752.6268749999999S625.7501249999999 744.39990625 622.9348124999999 741.5533125L581.48715625 700.0743749999999z" />
    <glyph glyph-name="trees"
      unicode="&#xE028;"
      horiz-adv-x="1251.25" d="M1243.6056445312502 239.5752734375001L1098.69525390625 406.8322070312501H1157.40625C1169.5668359375 406.8322070312501 1180.6912304687498 413.8900390625002 1185.7548828125 424.95578125C1190.8771875 436.0215234375001 1189.17626953125 449.04234375 1181.2973046875 458.32896484375L1039.554140625 625.8987109375H1094.84375C1107.1802929687499 625.8987109375 1118.36333984375 633.1716015625 1123.4269921875 644.45240234375C1128.4319921874999 655.7527539062501 1126.359609375 668.92998046875 1118.1091796875 678.1383984375L836.5779296874999 991.08775390625C824.6128515624999 1004.28453125 801.9925976562499 1004.28453125 790.0275195312499 991.08775390625L625.625 808.32705078125L461.22248046875 991.08775390625C449.25740234375 1004.28453125 426.6371484375 1004.28453125 414.6720703125 991.08775390625L133.1408203125 678.1383984375A31.3985546875 31.3985546875 0 0 1 127.8230078125 644.45240234375C132.88666015625 633.1716015625 144.06970703125 625.8987109375 156.40625 625.8987109375H211.695859375L69.9526953125 458.32896484375C62.07373046875 449.04234375 60.35326171875 436.0215234374999 65.4951171875 424.95578125C70.55876953125 413.8900390625 81.6831640625 406.8322070312501 93.84375 406.8322070312501H152.55474609375L7.64435546875 239.5752734375001C-0.3519140625 230.308203125 -2.24833984375 217.2091796875001 2.8153125 206.0847851562501C7.9376171875 194.9212890625001 19.06201171875 187.78525390625 31.28125 187.78525390625H344.09375V139.9640429687501L296.7808593750001 45.2991601562501C286.37984375 24.4971289062501 301.5121484375 0 324.7580273437501 0H551.11697265625C574.3628515624999 0 589.4951562499999 24.4775781249999 579.094140625 45.2991601562501L531.78125 139.9640429687499V187.7852539062499H719.46875V139.9640429687499L672.155859375 45.29916015625C661.7548437500001 24.4971289062499 676.8871484375001 0 700.13302734375 0H926.49197265625C949.7378515625 0 964.87015625 24.4775781249999 954.469140625 45.2991601562501L907.15625 139.9640429687499V187.7852539062499H1219.96875C1232.18798828125 187.7852539062499 1243.3123828125001 194.9408398437499 1248.4346874999999 206.08478515625C1253.5178906249998 217.2091796875 1251.62146484375 230.3082031249999 1243.60564453125 239.5752734375zM375.375 62.6016015624999L406.65625 125.18365234375V187.7852539062499H469.21875V125.18365234375L500.5 62.6016015624999H375.375zM99.2788671875 250.25L286.9663671875 469.21875H161.2939453125L346.59625 688.1875H226.6717578125L437.9375 922.95328125L649.2032421875 688.1875H529.2787500000001L714.5810546875 469.21875H588.9086328125001L776.5961328125001 250.25H99.2788671875zM750.75 62.6016015624999L782.03125 125.18365234375V187.7852539062499H844.59375V125.18365234375L875.875 62.6016015624999H750.75zM858.983125 250.25L723.3202539062501 406.8517578125001H782.03125C794.1918359375001 406.8517578125001 805.3162304687501 413.9095898437501 810.3798828125 424.97533203125C815.5021875 436.0410742187501 813.80126953125 449.06189453125 805.9223046875001 458.348515625L664.1791406250001 625.9182617187499H719.46875C731.80529296875 625.9182617187499 742.9883398437499 633.19115234375 748.0519921875 644.471953125C753.0569921875 655.7723046875 750.984609375 668.9495312500001 742.7341796874999 678.15794921875L667.8742382812499 761.36607421875L813.3125 922.95328125L1024.5782421874999 688.1875H904.6537499999998L1089.9560546874998 469.21875H964.2836328124998L1151.9711328124997 250.25H858.983125z" />
    <glyph glyph-name="user"
      unicode="&#xE029;"
      horiz-adv-x="875.875" d="M613.1125000000001 437.9375C557.0017578125 437.9375 530.0216796875001 406.65625 437.9375000000001 406.65625C345.8533203125001 406.65625 319.0687500000001 437.9375 262.7625000000001 437.9375C117.695703125 437.9375 0 320.241796875 0 175.1750000000001V93.84375C0 42.0341796875 42.0341796875 0 93.84375 0H782.03125C833.8408203125 0 875.875 42.0341796875 875.875 93.84375V175.1750000000001C875.875 320.241796875 758.179296875 437.9375 613.1125000000001 437.9375zM813.3125 93.84375C813.3125 76.6390625 799.2359375 62.5625 782.03125 62.5625H93.84375C76.6390625 62.5625 62.5625 76.6390625 62.5625 93.84375V175.1750000000001C62.5625 285.6369140625001 152.3005859375 375.375 262.7625 375.375C301.08203125 375.375 339.2060546875 344.09375 437.9375 344.09375C536.4734374999999 344.09375 574.79296875 375.375 613.1125000000001 375.375C723.5744140625001 375.375 813.3125 285.6369140625001 813.3125 175.1750000000001V93.84375zM437.9375 500.5C576.1615234375 500.5 688.1875 612.5259765625001 688.1875 750.75S576.1615234375 1001 437.9375 1001S187.6875 888.9740234375 187.6875 750.75S299.7134765625001 500.5 437.9375 500.5zM437.9375 938.4375C541.3611328124999 938.4375 625.625 854.1736328125 625.625 750.75S541.3611328124999 563.0625 437.9375 563.0625S250.25 647.3263671875 250.25 750.75S334.5138671875 938.4375 437.9375 938.4375z" />
    <glyph glyph-name="users"
      unicode="&#xE02A;"
      horiz-adv-x="1251.25" d="M1063.5625 563.0625C1149.9769531250001 563.0625 1219.96875 633.0542968750001 1219.96875 719.46875S1149.9769531250001 875.875 1063.5625 875.875S907.15625 805.883203125 907.15625 719.46875S977.148046875 563.0625 1063.5625 563.0625zM1063.5625 813.3125C1115.3720703125 813.3125 1157.40625 771.2783203125 1157.40625 719.46875S1115.3720703125 625.625 1063.5625 625.625S969.71875 667.6591796875 969.71875 719.46875S1011.7529296875 813.3125 1063.5625 813.3125zM625.625 500.5C746.6443359374999 500.5 844.59375 598.4494140625 844.59375 719.46875S746.6443359374999 938.4375 625.625 938.4375S406.65625 840.4880859375 406.65625 719.46875S504.6056640625001 500.5 625.625 500.5zM625.625 875.875C711.8439453125001 875.875 782.03125 805.6876953125 782.03125 719.46875S711.8439453125001 563.0625 625.625 563.0625S469.21875 633.2498046875 469.21875 719.46875S539.4060546874999 875.875 625.625 875.875zM1102.6640625 500.5H1024.4609375C994.74375 500.5 967.1771484375 491.115625 944.1072265625 475.2794921875001C962.4849609374997 462.7669921875001 979.1031249999997 448.1039062500002 993.7662109374997 431.4857421875002C1003.34609375 435.5914062500001 1013.7080078125 437.9375000000001 1024.4609375 437.9375000000001H1102.6640625C1149.9769531250001 437.9375000000001 1188.6875 395.9033203125001 1188.6875 344.0937500000001C1188.6875 326.8890625000002 1202.7640625000001 312.8125000000001 1219.96875 312.8125000000001S1251.25 326.8890625000002 1251.25 344.0937500000001C1251.25 430.3126953125002 1184.5818359375 500.5000000000001 1102.6640625 500.5000000000001zM187.6875 563.0625C274.101953125 563.0625 344.09375 633.0542968750001 344.09375 719.46875S274.101953125 875.875 187.6875 875.875S31.28125 805.883203125 31.28125 719.46875S101.273046875 563.0625 187.6875 563.0625zM187.6875 813.3125C239.4970703125 813.3125 281.53125 771.2783203125 281.53125 719.46875S239.4970703125 625.625 187.6875 625.625S93.84375 667.6591796875 93.84375 719.46875S135.8779296875 813.3125 187.6875 813.3125zM782.2267578125001 461.3984375C716.9271484375001 461.3984375 700.7 437.9375 625.625 437.9375C550.5500000000001 437.9375 534.3228515625 461.3984375 469.0232421875 461.3984375C398.0539062500001 461.3984375 329.0396484375001 429.726171875 288.5695312500001 369.7052734375001C264.3265625 333.7318359375002 250.2500000000001 290.5246093750001 250.2500000000001 243.99375V156.40625C250.2500000000001 104.5966796875 292.2841796875001 62.5625 344.0937500000001 62.5625H907.15625C958.9658203125 62.5625 1001 104.5966796875 1001 156.40625V243.99375C1001 290.5246093750001 986.9234375 333.7318359375 962.68046875 369.7052734375001C922.2103515625 429.726171875 853.1960937499999 461.3984375 782.2267578125 461.3984375zM938.4375 156.40625C938.4375 139.2015625 924.3609375 125.125 907.15625 125.125H344.09375C326.8890625 125.125 312.8125 139.2015625 312.8125 156.40625V243.99375C312.8125 276.4480468750001 322.3923828125 307.9248046875 340.3791015625 334.709375C367.3591796875 374.7884765625 415.4541015625 398.8359375 468.827734375 398.8359375C522.396875 398.8359375 541.556640625 375.375 625.625 375.375S728.853125 398.8359375 782.2267578125001 398.8359375C835.600390625 398.8359375 883.6953125 374.7884765625 910.675390625 334.709375C928.662109375 307.9248046875 938.2419921875 276.448046875 938.2419921875 243.99375V156.40625zM307.1427734375 475.2794921875001C283.87734375 491.1156250000001 256.3107421875 500.5000000000001 226.7890625 500.5000000000001H148.5859375C66.6681640625 500.5000000000001 0 430.3126953125001 0 344.09375C0 326.8890625 14.0765625 312.8125 31.28125 312.8125S62.5625 326.8890625 62.5625 344.09375C62.5625 395.9033203125 101.273046875 437.9375 148.5859375 437.9375H226.7890625C237.5419921875 437.9375 247.90390625 435.59140625 257.4837890625 431.4857421875C272.146875 448.10390625 288.960546875 462.7669921875 307.1427734375 475.2794921875z" />
    <glyph glyph-name="vector-square"
      unicode="&#xE02B;"
      horiz-adv-x="1001" d="M950.95 750.75C978.5948046875 750.75 1001 773.1551953125 1001 800.8V950.95C1001 978.5948046875 978.5948046875 1001 950.95 1001H800.8C773.1551953124999 1001 750.75 978.5948046875 750.75 950.95V907.15625H250.25V950.95C250.25 978.5948046875 227.8448046875 1001 200.2 1001H50.05C22.4051953125 1001 0 978.5948046875 0 950.95V800.8C0 773.1551953124999 22.4051953125 750.75 50.05 750.75H93.84375V250.25H50.05C22.4051953125 250.25 0 227.8448046875001 0 200.1999999999999V50.05C0 22.4051953124999 22.4051953125 0 50.05 0H200.2C227.8448046875 0 250.25 22.4051953124999 250.25 50.0500000000001V93.84375H750.75V50.0500000000001C750.75 22.4051953125 773.1551953124999 0 800.8000000000001 0H950.95C978.5948046875 0 1001 22.4051953124999 1001 50.0500000000001V200.2000000000001C1001 227.8448046875001 978.5948046875 250.2500000000001 950.95 250.2500000000001H907.15625V750.75H950.95zM813.3125 938.4375H938.4375V813.3125H813.3125V938.4375zM62.5625 813.3125V938.4375H187.6875V813.3125H62.5625zM187.6875 62.5625H62.5625V187.6875H187.6875V62.5625zM938.4375 187.6875V62.5625H813.3125V187.6875H938.4375zM844.59375 250.25H800.8000000000001C773.1551953125 250.25 750.75 227.8448046875001 750.75 200.1999999999999V156.40625H250.25V200.1999999999999C250.25 227.8448046875 227.8448046875 250.25 200.2 250.25H156.40625V750.75H200.2C227.8448046875 750.75 250.25 773.1551953125 250.25 800.8V844.59375H750.75V800.8C750.75 773.1551953124999 773.1551953124999 750.75 800.8000000000001 750.75H844.59375V250.25z" />
  </font>
</defs>
</svg>
